  0
SECTION
  2
HEADER
  9
$ACADVER
  1
AC1014
  9
$ACADMAINTVER
 70
     9
  9
$DWGCODEPAGE
  3
ANSI_1252
  9
$INSBASE
 10
0.0
 20
0.0
 30
0.0
  9
$EXTMIN
 10
0.4598649817393907
 20
5.56399497355889
 30
0.0
  9
$EXTMAX
 10
11.86396761636872
 20
9.430706492007644
 30
0.0
  9
$LIMMIN
 10
0.0
 20
0.0
  9
$LIMMAX
 10
12.0
 20
9.0
  9
$ORTHOMODE
 70
     0
  9
$REGENMODE
 70
     1
  9
$FILLMODE
 70
     1
  9
$QTEXTMODE
 70
     0
  9
$MIRRTEXT
 70
     1
  9
$DRAGMODE
 70
     2
  9
$LTSCALE
 40
1.0
  9
$OSMODE
 70
     0
  9
$ATTMODE
 70
     1
  9
$TEXTSIZE
 40
0.2
  9
$TRACEWID
 40
0.05
  9
$TEXTSTYLE
  7
STANDARD
  9
$CLAYER
  8
0
  9
$CELTYPE
  6
BYLAYER
  9
$CECOLOR
 62
   256
  9
$CELTSCALE
 40
1.0
  9
$DELOBJ
 70
     1
  9
$DISPSILH
 70
     0
  9
$DIMSCALE
 40
1.0
  9
$DIMASZ
 40
0.18
  9
$DIMEXO
 40
0.0625
  9
$DIMDLI
 40
0.38
  9
$DIMRND
 40
0.0
  9
$DIMDLE
 40
0.0
  9
$DIMEXE
 40
0.18
  9
$DIMTP
 40
0.0
  9
$DIMTM
 40
0.0
  9
$DIMTXT
 40
0.18
  9
$DIMCEN
 40
0.09
  9
$DIMTSZ
 40
0.0
  9
$DIMTOL
 70
     0
  9
$DIMLIM
 70
     0
  9
$DIMTIH
 70
     1
  9
$DIMTOH
 70
     1
  9
$DIMSE1
 70
     0
  9
$DIMSE2
 70
     0
  9
$DIMTAD
 70
     0
  9
$DIMZIN
 70
     0
  9
$DIMBLK
  1

  9
$DIMASO
 70
     1
  9
$DIMSHO
 70
     1
  9
$DIMPOST
  1

  9
$DIMAPOST
  1

  9
$DIMALT
 70
     0
  9
$DIMALTD
 70
     2
  9
$DIMALTF
 40
25.4
  9
$DIMLFAC
 40
1.0
  9
$DIMTOFL
 70
     0
  9
$DIMTVP
 40
0.0
  9
$DIMTIX
 70
     0
  9
$DIMSOXD
 70
     0
  9
$DIMSAH
 70
     0
  9
$DIMBLK1
  1

  9
$DIMBLK2
  1

  9
$DIMSTYLE
  2
STANDARD
  9
$DIMCLRD
 70
     0
  9
$DIMCLRE
 70
     0
  9
$DIMCLRT
 70
     0
  9
$DIMTFAC
 40
1.0
  9
$DIMGAP
 40
0.09
  9
$DIMJUST
 70
     0
  9
$DIMSD1
 70
     0
  9
$DIMSD2
 70
     0
  9
$DIMTOLJ
 70
     1
  9
$DIMTZIN
 70
     0
  9
$DIMALTZ
 70
     0
  9
$DIMALTTZ
 70
     0
  9
$DIMFIT
 70
     3
  9
$DIMUPT
 70
     0
  9
$DIMUNIT
 70
     2
  9
$DIMDEC
 70
     2
  9
$DIMTDEC
 70
     2
  9
$DIMALTU
 70
     2
  9
$DIMALTTD
 70
     2
  9
$DIMTXSTY
  7
STANDARD
  9
$DIMAUNIT
 70
     0
  9
$LUNITS
 70
     2
  9
$LUPREC
 70
     4
  9
$SKETCHINC
 40
0.1
  9
$FILLETRAD
 40
0.5
  9
$AUNITS
 70
     0
  9
$AUPREC
 70
     0
  9
$MENU
  1
.
  9
$ELEVATION
 40
0.0
  9
$PELEVATION
 40
0.0
  9
$THICKNESS
 40
0.0
  9
$LIMCHECK
 70
     0
  9
$BLIPMODE
 70
     0
  9
$CHAMFERA
 40
0.5
  9
$CHAMFERB
 40
0.5
  9
$CHAMFERC
 40
1.0
  9
$CHAMFERD
 40
0.0
  9
$SKPOLY
 70
     0
  9
$TDCREATE
 40
2452317.335998379
  9
$TDUPDATE
 40
2452642.592049074
  9
$TDINDWG
 40
0.0029534722
  9
$TDUSRTIMER
 40
0.0029534722
  9
$USRTIMER
 70
     1
  9
$ANGBASE
 50
0.0
  9
$ANGDIR
 70
     0
  9
$PDMODE
 70
     0
  9
$PDSIZE
 40
0.0
  9
$PLINEWID
 40
0.0
  9
$COORDS
 70
     1
  9
$SPLFRAME
 70
     0
  9
$SPLINETYPE
 70
     6
  9
$SPLINESEGS
 70
     8
  9
$ATTDIA
 70
     1
  9
$ATTREQ
 70
     1
  9
$HANDLING
 70
-16383
  9
$HANDSEED
  5
23B
  9
$SURFTAB1
 70
     6
  9
$SURFTAB2
 70
     6
  9
$SURFTYPE
 70
     6
  9
$SURFU
 70
     6
  9
$SURFV
 70
     6
  9
$UCSNAME
  2

  9
$UCSORG
 10
0.0
 20
0.0
 30
0.0
  9
$UCSXDIR
 10
1.0
 20
0.0
 30
0.0
  9
$UCSYDIR
 10
0.0
 20
1.0
 30
0.0
  9
$PUCSNAME
  2

  9
$PUCSORG
 10
0.0
 20
0.0
 30
0.0
  9
$PUCSXDIR
 10
1.0
 20
0.0
 30
0.0
  9
$PUCSYDIR
 10
0.0
 20
1.0
 30
0.0
  9
$USERI1
 70
     0
  9
$USERI2
 70
     0
  9
$USERI3
 70
     0
  9
$USERI4
 70
     0
  9
$USERI5
 70
     0
  9
$USERR1
 40
0.0
  9
$USERR2
 40
0.0
  9
$USERR3
 40
0.0
  9
$USERR4
 40
0.0
  9
$USERR5
 40
0.0
  9
$WORLDVIEW
 70
     1
  9
$SHADEDGE
 70
     3
  9
$SHADEDIF
 70
    70
  9
$TILEMODE
 70
     1
  9
$MAXACTVP
 70
    64
  9
$PINSBASE
 10
0.0
 20
0.0
 30
0.0
  9
$PLIMCHECK
 70
     0
  9
$PEXTMIN
 10
1.000000000000000E+20
 20
1.000000000000000E+20
 30
1.000000000000000E+20
  9
$PEXTMAX
 10
-1.000000000000000E+20
 20
-1.000000000000000E+20
 30
-1.000000000000000E+20
  9
$PLIMMIN
 10
0.0
 20
0.0
  9
$PLIMMAX
 10
12.0
 20
9.0
  9
$UNITMODE
 70
     0
  9
$VISRETAIN
 70
     1
  9
$PLINEGEN
 70
     0
  9
$PSLTSCALE
 70
     1
  9
$TREEDEPTH
 70
  3020
  9
$PICKSTYLE
 70
     1
  9
$CMLSTYLE
  2
STANDARD
  9
$CMLJUST
 70
     0
  9
$CMLSCALE
 40
1.0
  9
$PROXYGRAPHICS
 70
     1
  9
$MEASUREMENT
 70
     0
  0
ENDSEC
  0
SECTION
  2
CLASSES
  0
CLASS
  1
ACDBDICTIONARYWDFLT
  2
AcDbDictionaryWithDefault
  3
AutoCAD 2000
 90
        0
280
     0
281
     0
  0
CLASS
  1
ACDBPLACEHOLDER
  2
AcDbPlaceHolder
  3
AutoCAD 2000
 90
        0
280
     0
281
     0
  0
CLASS
  1
LAYOUT
  2
AcDbLayout
  3
AutoCAD 2000
 90
        0
280
     0
281
     0
  0
CLASS
  1
LONG_TRANSACTION
  2
AcDbLongTransaction
  3
AutoCAD 2000
 90
        0
280
     0
281
     0
  0
CLASS
  1
LWPOLYLINE
  2
AcDbPolyline
  3
AutoCAD 2000
 90
        0
280
     0
281
     1
  0
CLASS
  1
HATCH
  2
AcDbHatch
  3
AutoCAD 2000
 90
        0
280
     0
281
     1
  0
CLASS
  1
XRECORD
  2
AcDbXrecord
  3
AutoCAD 2000
 90
        0
280
     0
281
     0
  0
ENDSEC
  0
SECTION
  2
TABLES
  0
TABLE
  2
VPORT
  5
8
330
0
100
AcDbSymbolTable
 70
     3
  0
VPORT
  5
214
330
8
100
AcDbSymbolTableRecord
100
AcDbViewportTableRecord
  2
*ACTIVE
 70
     0
 10
0.0
 20
0.0
 11
1.0
 21
1.0
 12
6.415880299240646
 22
6.827205870817564
 13
0.0
 23
0.0
 14
0.5
 24
0.5
 15
0.5
 25
0.5
 16
0.0
 26
0.0
 36
1.0
 17
0.0
 27
0.0
 37
0.0
 40
8.99999999161816
 41
1.462515883100381
 42
50.0
 43
0.0
 44
0.0
 50
0.0
 51
0.0
 71
     0
 72
   100
 73
     1
 74
     3
 75
     0
 76
     0
 77
     0
 78
     0
  0
ENDTAB
  0
TABLE
  2
LTYPE
  5
5
330
0
100
AcDbSymbolTable
 70
     1
  0
LTYPE
  5
14
330
5
100
AcDbSymbolTableRecord
100
AcDbLinetypeTableRecord
  2
BYBLOCK
 70
     0
  3

 72
    65
 73
     0
 40
0.0
  0
LTYPE
  5
15
330
5
100
AcDbSymbolTableRecord
100
AcDbLinetypeTableRecord
  2
BYLAYER
 70
     0
  3

 72
    65
 73
     0
 40
0.0
  0
LTYPE
  5
16
330
5
100
AcDbSymbolTableRecord
100
AcDbLinetypeTableRecord
  2
CONTINUOUS
 70
     0
  3
Solid line
 72
    65
 73
     0
 40
0.0
  0
ENDTAB
  0
TABLE
  2
LAYER
  5
2
330
0
100
AcDbSymbolTable
 70
     5
  0
LAYER
  5
10
330
2
100
AcDbSymbolTableRecord
100
AcDbLayerTableRecord
  2
0
 70
     0
 62
     7
  6
CONTINUOUS
  0
LAYER
  5
34
330
2
100
AcDbSymbolTableRecord
100
AcDbLayerTableRecord
  2
L
 70
     0
 62
     7
  6
CONTINUOUS
  0
LAYER
  5
45
330
2
100
AcDbSymbolTableRecord
100
AcDbLayerTableRecord
  2
DEFPOINTS
 70
     0
 62
     7
  6
CONTINUOUS
  0
LAYER
  5
88
330
2
100
AcDbSymbolTableRecord
100
AcDbLayerTableRecord
  2
TX
 70
     0
 62
   150
  6
CONTINUOUS
  0
LAYER
  5
B5
330
2
100
AcDbSymbolTableRecord
100
AcDbLayerTableRecord
  2
MAIN
 70
     0
 62
     7
  6
CONTINUOUS
  0
ENDTAB
  0
TABLE
  2
STYLE
  5
3
330
0
100
AcDbSymbolTable
 70
     3
  0
STYLE
  5
11
330
3
100
AcDbSymbolTableRecord
100
AcDbTextStyleTableRecord
  2
STANDARD
 70
     0
 40
0.0
 41
1.0
 50
0.0
 71
     0
 42
0.2
  3
txt
  4

  0
STYLE
  5
35
330
3
100
AcDbSymbolTableRecord
100
AcDbTextStyleTableRecord
  2
REG
 70
     0
 40
0.0
 41
1.0
 50
0.0
 71
     0
 42
0.09375
  3
E:\R13\com\fonts\ARCHITXT.SHX
  4

  0
STYLE
  5
36
330
3
100
AcDbSymbolTableRecord
100
AcDbTextStyleTableRecord
  2
DIMTXT
 70
     0
 40
0.0
 41
1.0
 50
0.0
 71
     0
 42
1.125
  3
archt.shx
  4

  0
ENDTAB
  0
TABLE
  2
VIEW
  5
6
330
0
100
AcDbSymbolTable
 70
     0
  0
ENDTAB
  0
TABLE
  2
UCS
  5
7
330
0
100
AcDbSymbolTable
 70
     0
  0
ENDTAB
  0
TABLE
  2
APPID
  5
9
330
0
100
AcDbSymbolTable
 70
     1
  0
APPID
  5
12
330
9
100
AcDbSymbolTableRecord
100
AcDbRegAppTableRecord
  2
ACAD
 70
     0
  0
ENDTAB
  0
TABLE
  2
DIMSTYLE
  5
A
330
0
100
AcDbSymbolTable
 70
     6
  0
DIMSTYLE
105
27
102
{ACAD_REACTORS
330
C2
330
D0
102
}
330
A
100
AcDbSymbolTableRecord
100
AcDbDimStyleTableRecord
  2
STANDARD
 70
     0
  3

  4

  5

  6

  7

 40
1.0
 41
0.18
 42
0.0625
 43
0.38
 44
0.18
 45
0.0
 46
0.0
 47
0.0
 48
0.0
140
0.18
141
0.09
142
0.0
143
25.4
144
1.0
145
0.0
146
1.0
147
0.09
 71
     0
 72
     0
 73
     1
 74
     1
 75
     0
 76
     0
 77
     0
 78
     0
170
     0
171
     2
172
     0
173
     0
174
     0
175
     0
176
     0
177
     0
178
     0
270
     2
271
     2
272
     2
273
     2
274
     2
340
11
275
     0
280
     0
281
     0
282
     0
283
     1
284
     0
285
     0
286
     0
287
     3
288
     0
  0
DIMSTYLE
105
37
330
A
100
AcDbSymbolTableRecord
100
AcDbDimStyleTableRecord
  2
1
 70
     0
  3

  4

  5

  6

  7

 40
1.0
 41
1.125
 42
0.5
 43
0.375
 44
1.19921875
 45
0.0
 46
0.5
 47
0.0
 48
0.0
140
1.125
141
0.125
142
0.0
143
25.4
144
1.0
145
0.0
146
0.8
147
0.5625
 71
     0
 72
     0
 73
     0
 74
     0
 75
     0
 76
     0
 77
     1
 78
     3
170
     0
171
     2
172
     1
173
     0
174
     1
175
     0
176
   133
177
   133
178
   150
270
     2
271
     3
272
     3
273
     2
274
     2
340
36
275
     0
280
     0
281
     0
282
     0
283
     1
284
     0
285
     0
286
     0
287
     4
288
     0
  0
DIMSTYLE
105
38
330
A
100
AcDbSymbolTableRecord
100
AcDbDimStyleTableRecord
  2
1$2
 70
     0
  3

  4

  5
DOTSMALL
  6

  7

 40
1.0
 41
1.5
 42
0.5
 43
0.375
 44
1.19921875
 45
0.0
 46
0.5
 47
0.0
 48
0.0
140
0.75
141
0.125
142
0.0
143
25.4
144
1.0
145
0.0
146
0.8
147
0.5625
 71
     0
 72
     0
 73
     0
 74
     0
 75
     0
 76
     0
 77
     1
 78
     3
170
     0
171
     2
172
     1
173
     0
174
     1
175
     0
176
   133
177
   133
178
   150
270
     2
271
     3
272
     3
273
     2
274
     2
340
36
275
     0
280
     0
281
     0
282
     0
283
     1
284
     0
285
     0
286
     0
287
     4
288
     0
  0
DIMSTYLE
105
39
330
A
100
AcDbSymbolTableRecord
100
AcDbDimStyleTableRecord
  2
1$4
 70
     0
  3

  4

  5

  6

  7
DOTSMALL
 40
1.0
 41
1.5
 42
0.5
 43
0.375
 44
1.19921875
 45
0.0
 46
0.5
 47
0.0
 48
0.0
140
0.75
141
0.125
142
0.0
143
25.4
144
1.0
145
0.0
146
0.8
147
0.5625
 71
     0
 72
     0
 73
     0
 74
     0
 75
     0
 76
     0
 77
     1
 78
     3
170
     0
171
     2
172
     1
173
     1
174
     1
175
     0
176
   133
177
   133
178
   150
270
     2
271
     3
272
     3
273
     2
274
     2
340
36
275
     0
280
     0
281
     0
282
     0
283
     1
284
     0
285
     0
286
     0
287
     4
288
     0
  0
DIMSTYLE
105
3A
330
A
100
AcDbSymbolTableRecord
100
AcDbDimStyleTableRecord
  2
1$3
 70
     0
  3

  4

  5
DOTSMALL
  6

  7

 40
1.0
 41
1.5
 42
0.5
 43
0.375
 44
1.19921875
 45
0.0
 46
0.5
 47
0.0
 48
0.0
140
0.75
141
0.125
142
0.0
143
25.4
144
1.0
145
0.0
146
0.8
147
0.5625
 71
     0
 72
     0
 73
     0
 74
     0
 75
     0
 76
     0
 77
     1
 78
     3
170
     0
171
     2
172
     1
173
     0
174
     1
175
     0
176
   133
177
   133
178
   150
270
     2
271
     3
272
     3
273
     2
274
     2
340
36
275
     0
280
     0
281
     0
282
     0
283
     1
284
     0
285
     0
286
     0
287
     4
288
     0
  0
DIMSTYLE
105
3B
330
A
100
AcDbSymbolTableRecord
100
AcDbDimStyleTableRecord
  2
1$7
 70
     0
  3

  4

  5

  6

  7

 40
1.0
 41
1.0
 42
0.5
 43
0.375
 44
1.19921875
 45
0.0
 46
0.5
 47
0.0
 48
0.0
140
0.75
141
0.125
142
0.0
143
25.4
144
1.0
145
0.0
146
0.8
147
0.5625
 71
     0
 72
     0
 73
     0
 74
     0
 75
     0
 76
     0
 77
     1
 78
     3
170
     0
171
     2
172
     1
173
     0
174
     1
175
     0
176
   133
177
   133
178
   150
270
     2
271
     3
272
     3
273
     2
274
     2
340
36
275
     0
280
     0
281
     0
282
     0
283
     1
284
     0
285
     0
286
     0
287
     4
288
     0
  0
ENDTAB
  0
TABLE
  2
BLOCK_RECORD
  5
1
330
0
100
AcDbSymbolTable
 70
     5
  0
BLOCK_RECORD
  5
1F
102
{ACAD_XDICTIONARY
360
237
102
}
330
1
100
AcDbSymbolTableRecord
100
AcDbBlockTableRecord
  2
*MODEL_SPACE
  0
BLOCK_RECORD
  5
1B
102
{ACAD_XDICTIONARY
360
235
102
}
330
1
100
AcDbSymbolTableRecord
100
AcDbBlockTableRecord
  2
*PAPER_SPACE
  0
BLOCK_RECORD
  5
2B
330
1
100
AcDbSymbolTableRecord
100
AcDbBlockTableRecord
  2
_DOT
  0
BLOCK_RECORD
  5
30
330
1
100
AcDbSymbolTableRecord
100
AcDbBlockTableRecord
  2
_DOTSMALL
  0
BLOCK_RECORD
  5
C3
330
1
100
AcDbSymbolTableRecord
100
AcDbBlockTableRecord
  2
*D3
  0
BLOCK_RECORD
  5
D1
330
1
100
AcDbSymbolTableRecord
100
AcDbBlockTableRecord
  2
*D4
  0
ENDTAB
  0
ENDSEC
  0
SECTION
  2
BLOCKS
  0
BLOCK
  5
20
330
1F
100
AcDbEntity
  8
0
100
AcDbBlockBegin
  2
*MODEL_SPACE
 70
     0
 10
0.0
 20
0.0
 30
0.0
  3
*MODEL_SPACE
  1

  0
ENDBLK
  5
21
330
1F
100
AcDbEntity
  8
0
100
AcDbBlockEnd
  0
BLOCK
  5
1C
330
1B
100
AcDbEntity
 67
     1
  8
0
100
AcDbBlockBegin
  2
*PAPER_SPACE
 70
     0
 10
0.0
 20
0.0
 30
0.0
  3
*PAPER_SPACE
  1

  0
ENDBLK
  5
1D
330
1B
100
AcDbEntity
 67
     1
  8
0
100
AcDbBlockEnd
  0
BLOCK
  5
2E
330
2B
100
AcDbEntity
  8
0
100
AcDbBlockBegin
  2
_DOT
 70
     0
 10
0.0
 20
0.0
 30
0.0
  3
_DOT
  1

  0
LWPOLYLINE
  5
2C
330
2B
100
AcDbEntity
  8
L
 62
     0
100
AcDbPolyline
 90
        2
 70
     1
 43
0.5
 10
-0.25
 20
0.0
 42
1.0
 10
0.25
 20
0.0
 42
1.0
  0
LINE
  5
2D
330
2B
100
AcDbEntity
  8
L
 62
     0
100
AcDbLine
 10
-0.5
 20
0.0
 30
0.0
 11
-1.0
 21
0.0
 31
0.0
  0
ENDBLK
  5
2F
330
2B
100
AcDbEntity
  8
0
100
AcDbBlockEnd
  0
BLOCK
  5
32
330
30
100
AcDbEntity
  8
0
 48
0.116666
100
AcDbBlockBegin
  2
_DOTSMALL
 70
     0
 10
0.0
 20
0.0
 30
0.0
  3
_DOTSMALL
  1

  0
LWPOLYLINE
  5
31
330
30
100
AcDbEntity
  8
0
  6
BYBLOCK
 62
     0
100
AcDbPolyline
 90
        2
 70
     1
 43
0.5
 10
-0.0625
 20
0.0
 42
1.0
 10
0.0625
 20
0.0
 42
1.0
  0
ENDBLK
  5
33
330
30
100
AcDbEntity
  8
0
 48
0.116666
100
AcDbBlockEnd
  0
BLOCK
  5
CE
330
C3
100
AcDbEntity
  8
0
100
AcDbBlockBegin
  2
*D3
 70
     1
 10
0.0
 20
0.0
 30
0.0
  3
*D3
  1

  0
LINE
  5
C4
330
C3
100
AcDbEntity
  8
0
 62
     0
100
AcDbLine
 10
1.483025002983136
 20
8.369921870850127
 30
0.0
 11
1.483025002983136
 21
9.430706492007644
 31
0.0
  0
LINE
  5
C5
330
C3
100
AcDbEntity
  8
0
 62
     0
100
AcDbLine
 10
11.48302500298336
 20
8.369921870850127
 30
0.0
 11
11.48302500298336
 21
9.430706492007644
 31
0.0
  0
LINE
  5
C6
330
C3
100
AcDbEntity
  8
0
 62
     0
100
AcDbLine
 10
1.663025002983136
 20
9.250706492007644
 30
0.0
 11
6.10802500298325
 21
9.250706492007644
 31
0.0
  0
LINE
  5
C7
330
C3
100
AcDbEntity
  8
0
 62
     0
100
AcDbLine
 10
11.30302500298336
 20
9.250706492007644
 30
0.0
 11
6.85802500298325
 21
9.250706492007644
 31
0.0
  0
SOLID
  5
C8
330
C3
100
AcDbEntity
  8
0
 62
     0
100
AcDbTrace
 10
1.663025002983136
 20
9.280706492007643
 30
0.0
 11
1.663025002983136
 21
9.220706492007645
 31
0.0
 12
1.483025002983136
 22
9.250706492007644
 32
0.0
 13
1.483025002983136
 23
9.250706492007644
 33
0.0
  0
SOLID
  5
C9
330
C3
100
AcDbEntity
  8
0
 62
     0
100
AcDbTrace
 10
11.30302500298336
 20
9.280706492007643
 30
0.0
 11
11.30302500298336
 21
9.220706492007645
 31
0.0
 12
11.48302500298336
 22
9.250706492007644
 32
0.0
 13
11.48302500298336
 23
9.250706492007644
 33
0.0
  0
MTEXT
  5
CA
330
C3
100
AcDbEntity
  8
0
 62
     0
100
AcDbMText
 10
6.48302500298325
 20
9.250706492007644
 30
0.0
 40
0.18
 41
0.0
 71
     5
 72
     1
  1
\A1;10.00
1001
ACAD
1000
MTEXTBEGIN
1070
    73
1070
     1
1070
    44
1040
1.0
1070
    74
1070
     0
1000
MTEXTEND
  0
POINT
  5
CB
330
C3
100
AcDbEntity
  8
DEFPOINTS
 62
     0
100
AcDbPoint
 10
1.483025002983136
 20
8.307421870850127
 30
0.0
  0
POINT
  5
CC
330
C3
100
AcDbEntity
  8
DEFPOINTS
 62
     0
100
AcDbPoint
 10
11.48302500298336
 20
8.307421870850127
 30
0.0
  0
POINT
  5
CD
330
C3
100
AcDbEntity
  8
DEFPOINTS
 62
     0
100
AcDbPoint
 10
11.48302500298336
 20
9.250706492007644
 30
0.0
  0
ENDBLK
  5
CF
330
C3
100
AcDbEntity
  8
0
100
AcDbBlockEnd
  0
BLOCK
  5
DC
330
D1
100
AcDbEntity
  8
0
100
AcDbBlockBegin
  2
*D4
 70
     1
 10
0.0
 20
0.0
 30
0.0
  3
*D4
  1

  0
LINE
  5
D2
330
D1
100
AcDbEntity
  8
0
 62
     0
100
AcDbLine
 10
2.186525002983099
 20
8.399421870848861
 30
0.0
 11
0.5198649817393921
 21
8.399421870848861
 31
0.0
  0
LINE
  5
D3
330
D1
100
AcDbEntity
  8
0
 62
     0
100
AcDbLine
 10
1.460525002983555
 20
6.66442187084737
 30
0.0
 11
0.5198649817393916
 21
6.66442187084737
 31
0.0
  0
LINE
  5
D4
330
D1
100
AcDbEntity
  8
0
 62
     0
100
AcDbLine
 10
0.699864981739392
 20
8.219421870848861
 30
0.0
 11
0.6998649817393919
 21
7.711921870848115
 31
0.0
  0
LINE
  5
D5
330
D1
100
AcDbEntity
  8
0
 62
     0
100
AcDbLine
 10
0.6998649817393918
 20
6.844421870847369
 30
0.0
 11
0.6998649817393919
 21
7.351921870848116
 31
0.0
  0
SOLID
  5
D6
330
D1
100
AcDbEntity
  8
0
 62
     0
100
AcDbTrace
 10
0.669864981739392
 20
8.219421870848861
 30
0.0
 11
0.729864981739392
 21
8.219421870848861
 31
0.0
 12
0.699864981739392
 22
8.399421870848861
 32
0.0
 13
0.699864981739392
 23
8.399421870848861
 33
0.0
  0
SOLID
  5
D7
330
D1
100
AcDbEntity
  8
0
 62
     0
100
AcDbTrace
 10
0.6698649817393917
 20
6.844421870847369
 30
0.0
 11
0.7298649817393918
 21
6.844421870847369
 31
0.0
 12
0.6998649817393917
 22
6.66442187084737
 32
0.0
 13
0.6998649817393917
 23
6.66442187084737
 33
0.0
  0
MTEXT
  5
D8
330
D1
100
AcDbEntity
  8
0
 62
     0
100
AcDbMText
 10
0.6998649817393906
 20
7.531921870848115
 30
0.0
 40
0.18
 41
0.0
 71
     5
 72
     1
  1
\A1;1.74
1001
ACAD
1000
MTEXTBEGIN
1070
    73
1070
     1
1070
    44
1040
1.0
1070
    74
1070
     0
1000
MTEXTEND
  0
POINT
  5
D9
330
D1
100
AcDbEntity
  8
DEFPOINTS
 62
     0
100
AcDbPoint
 10
2.249025002983099
 20
8.399421870848861
 30
0.0
  0
POINT
  5
DA
330
D1
100
AcDbEntity
  8
DEFPOINTS
 62
     0
100
AcDbPoint
 10
1.523025002983555
 20
6.66442187084737
 30
0.0
  0
POINT
  5
DB
330
D1
100
AcDbEntity
  8
DEFPOINTS
 62
     0
100
AcDbPoint
 10
0.6998649817393917
 20
6.66442187084737
 30
0.0
  0
ENDBLK
  5
DD
330
D1
100
AcDbEntity
  8
0
100
AcDbBlockEnd
  0
ENDSEC
  0
SECTION
  2
ENTITIES
  0
TEXT
  5
BF
330
1F
100
AcDbEntity
  8
TX
 48
0.233332
100
AcDbText
 10
1.820205884726545
 20
5.567227732179578
 30
0.0
 40
0.09375
  1
SCALE : 1" = 1"
  7
REG
 11
1.820205884726545
 21
5.660977732179578
 31
0.0
100
AcDbText
 73
     3
  0
TEXT
  5
C0
330
1F
100
AcDbEntity
  8
MAIN
 62
     3
 48
0.233332
100
AcDbText
 10
1.820205884726545
 20
5.848449417541775
 30
0.0
 40
0.140625
  1
2 PART 12" BODY #1929
  7
REG
100
AcDbText
  0
LWPOLYLINE
  5
C1
330
1F
100
AcDbEntity
  8
MAIN
 62
     5
 48
0.233332
100
AcDbPolyline
 90
        2
 70
     0
 43
0.028125
 10
1.726470042045503
 20
5.754713574860677
 10
4.646582390899267
 20
5.754713574860677
  0
DIMENSION
  5
C2
330
1F
100
AcDbEntity
  8
0
100
AcDbDimension
  2
*D3
 10
11.48302500298336
 20
9.250706492007644
 30
0.0
 11
6.48302500298325
 21
9.250706492007644
 31
0.0
 70
    32
  3
STANDARD
100
AcDbAlignedDimension
 13
1.483025002983136
 23
8.307421870850127
 33
0.0
 14
11.48302500298336
 24
8.307421870850127
 34
0.0
100
AcDbRotatedDimension
  0
DIMENSION
  5
D0
330
1F
100
AcDbEntity
  8
0
100
AcDbDimension
  2
*D4
 10
0.6998649817393917
 20
6.66442187084737
 30
0.0
 11
0.6998649817393906
 21
7.531921870848115
 31
0.0
 70
    32
  3
STANDARD
100
AcDbAlignedDimension
 13
2.249025002983099
 23
8.399421870848861
 33
0.0
 14
1.523025002983555
 24
6.66442187084737
 34
0.0
 50
90.0
100
AcDbRotatedDimension
  0
LWPOLYLINE
  5
17C
330
1F
100
AcDbEntity
  8
MAIN
 62
     3
100
AcDbPolyline
 90
      151
 70
     1
 43
0.0
 10
10.71702500298351
 20
8.399421870848861
 10
2.249025002983099
 20
8.399421870848691
 42
0.4142135623681004
 10
2.229025002983117
 20
8.379421870849334
 10
2.229025002983117
 20
8.347421870850091
 42
-0.4142135623597758
 10
2.219025002983354
 20
8.337421870849873
 10
1.988525002983234
 20
8.337421870848679
 42
0.4142135623631056
 10
1.978525002508259
 20
8.3274218708492
 42
-0.4142135623664355
 10
1.968525002508268
 20
8.317421870848981
 10
1.868525002982888
 20
8.317421870849436
 10
1.853525002983243
 20
8.302421870849563
 10
1.838525002982915
 20
8.317421870849436
 10
1.738525003458217
 20
8.31742187084972
 42
-0.4142135623797547
 10
1.728525002983243
 20
8.327421870849654
 42
0.4142135623697653
 10
1.718525002983252
 20
8.337421870849873
 10
1.513025002982768
 20
8.337421870849759
 42
0.4142135623719851
 10
1.483025002983136
 20
8.307421870850127
 10
1.483025002983591
 20
7.339421870848916
 42
-0.4142135623730951
 10
1.443025002983628
 20
7.299421870848952
 10
1.185391655168924
 20
7.299421870848942
 42
-0.2001604496931437
 10
1.174734251783788
 20
7.303866315293474
 42
1.215447433725004
 10
1.1470250029821
 20
7.219421870848115
 10
1.443025002983628
 20
7.219421870848115
 42
-0.4142135623730951
 10
1.483025002983591
 20
7.179421870848152
 10
1.483025002983591
 20
6.704421870847333
 42
0.4142135623730951
 10
1.523025002983555
 20
6.66442187084737
 10
2.566525002982412
 20
6.66442187084737
 42
1.000000000000003
 10
2.566525002982412
 20
6.764421870847733
 10
1.823025002983396
 20
6.764421870847506
 42
-0.4142135623664355
 10
1.813025002983177
 20
6.774421870847952
 10
1.813025002983177
 20
6.804421870848607
 42
0.4142135623764248
 10
1.793025002983196
 20
6.824421870848134
 10
1.773025002983214
 20
6.824421870848361
 42
0.4142135623764248
 10
1.753025002983232
 20
6.804421870848607
 10
1.753025002983118
 20
6.78442187084817
 42
-0.4142135623697653
 10
1.733025002983136
 20
6.764421870847733
 10
1.593025002982468
 20
6.764421870847733
 42
-0.4142135623897441
 10
1.583025002982591
 20
6.774421870847952
 10
1.583025002982704
 20
7.019421870848297
 42
-0.4142135623664355
 10
1.593025002982695
 20
7.029421870848516
 10
1.856025002988299
 20
7.029421870848743
 42
1.000000000000003
 10
1.8560250029883
 20
7.129421870849334
 10
1.786025002988477
 20
7.129421870849789
 42
-0.4142135623597758
 10
1.7760250029886
 20
7.139421870849098
 10
1.776025002987804
 20
7.169421870850207
 42
0.9999999999711269
 10
1.713025002986338
 20
7.169421870849298
 10
1.713025002985656
 20
7.139421870848643
 42
-0.4142135623697653
 10
1.703025002985551
 20
7.129421870848879
 10
1.593025002983036
 20
7.129421870848879
 42
-0.4142135623664355
 10
1.583025002983045
 20
7.139421870849098
 10
1.583025002982761
 20
8.249421870851044
 42
-0.414213562356446
 10
1.593025002982241
 20
8.259421870851262
 10
1.703025002982823
 20
8.259421870851262
 42
-0.4142135623730951
 10
1.713025002983041
 20
8.249421870851044
 10
1.713025002982927
 20
8.024421870847042
 42
0.4142135623597757
 10
1.823025002978507
 20
7.91442187084737
 10
1.938025002982438
 20
7.91442187084737
 42
0.9999999999985783
 10
1.938025002982495
 20
7.994421870848206
 10
1.823025002983055
 20
7.994421870848206
 42
-0.4142135623597758
 10
1.813025002983291
 20
8.004421870848425
 10
1.813025002983291
 20
8.249421870851044
 42
-0.4142135623697653
 10
1.823025002983282
 20
8.259421870851262
 10
2.299025002983054
 20
8.259421870851376
 42
0.4142135623681004
 10
2.319025002983035
 20
8.279421870850789
 42
-0.4142135623697653
 10
2.339025002983017
 20
8.299421870849407
 10
2.878025002983232
 20
8.299421870850316
 42
-0.4142135623647706
 10
2.8980250029831
 20
8.279421870850789
 42
0.4142135623730951
 10
2.918025002983082
 20
8.259421870850808
 10
2.958025002982704
 20
8.259421870850808
 42
0.4142135623747599
 10
2.9780250029828
 20
8.279421870850789
 42
-0.4142135623714302
 10
2.998025002982668
 20
8.299421870850771
 10
3.783025002986274
 20
8.299421870851226
 10
3.79802500298285
 20
8.31442187084837
 10
3.813025002982723
 20
8.299421870848497
 10
6.423025002983418
 20
8.299421870849407
 42
-0.4142135623864144
 10
6.443025002983798
 20
8.279421870850789
 42
0.4142135623664355
 10
6.463025002983382
 20
8.259421870850808
 10
6.503025002983005
 20
8.259421870850808
 42
0.4142135623714302
 10
6.523025002982873
 20
8.279421870850789
 42
-0.4142135623664355
 10
6.543025002982854
 20
8.299421870849862
 10
9.968025002983718
 20
8.299421870849407
 42
-0.4142135623730951
 10
9.988025002983984
 20
8.279421870850789
 42
0.4142135623780898
 10
10.00802500298379
 20
8.259421870850808
 10
10.04802500298341
 20
8.259421870850808
 42
0.4142135623730951
 10
10.06802500298345
 20
8.279421870850789
 42
-0.4142135623631056
 10
10.08802500298326
 20
8.299421870849862
 10
10.62702500298416
 20
8.299421870849521
 42
-0.4142135623681003
 10
10.64702500298346
 20
8.279421870850789
 42
0.4142135623681004
 10
10.66702500298344
 20
8.259421870851262
 10
11.15302500298355
 20
8.259421870851262
 10
11.15302500298303
 20
8.004421870848425
 42
-0.4142135623597758
 10
11.14302500298322
 20
7.994421870848206
 10
11.02802500298377
 20
7.994421870848206
 42
1.000000000000003
 10
11.02802500298377
 20
7.91442187084737
 10
11.14302500298299
 20
7.914421870847426
 42
0.4142135623597758
 10
11.253025002983
 20
8.024421870847042
 10
11.253025002983
 20
8.249421870851044
 42
-0.4142135623797547
 10
11.26302500298367
 20
8.259421870851262
 10
11.37302500298426
 20
8.259421870851262
 42
-0.4142135623597758
 10
11.38302500298402
 20
8.249421870851044
 10
11.38302500298322
 20
7.139421870849098
 42
-0.4142135623664355
 10
11.37302500298323
 20
7.129421870848879
 10
11.26302500298072
 20
7.129421870848879
 42
-0.4142135623531162
 10
11.25302500298061
 20
7.139421870848643
 10
11.25302500297993
 20
7.169421870849298
 42
0.9999999999711269
 10
11.19002500297846
 20
7.169421870850207
 10
11.19002500297773
 20
7.139421870849098
 42
-0.4142135623631056
 10
11.18002500297779
 20
7.129421870849334
 10
11.11002500297797
 20
7.129421870849334
 42
1.000000000000003
 10
11.11002500297797
 20
7.02942187084897
 10
11.37302500298357
 20
7.029421870848516
 42
-0.4142135623664355
 10
11.38302500298356
 20
7.019421870848297
 10
11.38302500298373
 20
6.774421870847952
 42
-0.4142135623897441
 10
11.3730250029838
 20
6.764421870847733
 10
11.23302500298313
 20
6.764421870847961
 42
-0.4142135623697653
 10
11.21302500298315
 20
6.78442187084817
 10
11.21302500298304
 20
6.804421870848607
 42
0.4142135623697653
 10
11.19302500298305
 20
6.824421870848134
 10
11.17302500298307
 20
6.824421870848361
 42
0.4142135623764248
 10
11.15302500298309
 20
6.804421870848607
 10
11.15302500298309
 20
6.774421870847952
 42
-0.4142135623664355
 10
11.14302500298287
 20
6.764421870847733
 10
10.39952500298374
 20
6.764421870847733
 42
1.000000000000003
 10
10.39952500298374
 20
6.66442187084737
 10
11.42002500298201
 20
6.66442187084737
 10
11.42002500298258
 20
6.621421870847704
 42
-0.4142135623664355
 10
11.41002500298258
 20
6.611421870847486
 10
11.38152500298303
 20
6.611421870847486
 42
1.000000000000003
 10
11.38152500298303
 20
6.548421870846475
 10
11.44302500298306
 20
6.548421870846702
 42
0.4142135623747599
 10
11.48302500298302
 20
6.588421870846438
 10
11.48302500298268
 20
7.179421870848152
 42
-0.4142135623730951
 10
11.52302500298264
 20
7.219421870848115
 10
11.81902500298416
 20
7.219421870847706
 42
1.215447433724861
 10
11.7913157541826
 20
7.303866315293249
 42
-0.2001604496931437
 10
11.78065835079735
 20
7.299421870848952
 10
11.52302500298264
 20
7.299421870848952
 42
-0.4142135623730951
 10
11.48302500298268
 20
7.339421870848916
 10
11.48302500298325
 20
8.307421870850127
 42
0.4142135623719851
 10
11.45302500298373
 20
8.337421870849873
 10
11.24752500298324
 20
8.337421870849929
 42
0.4142135623764248
 10
11.23752500250816
 20
8.327421870849654
 42
-0.4142135623764248
 10
11.22752500250828
 20
8.317421870849891
 10
11.12752500298358
 20
8.317421870849436
 10
11.11252500298325
 20
8.302421870849563
 10
11.09752500298361
 20
8.317421870849436
 10
10.99752500345823
 20
8.317421870848924
 42
-0.4142135623697653
 10
10.98752500298325
 20
8.3274218708492
 42
0.4142135623631056
 10
10.97752500298326
 20
8.337421870848963
 10
10.74702500298314
 20
8.337421870849873
 42
-0.4142135623597758
 10
10.73702500298338
 20
8.347421870850091
 10
10.73702500298344
 20
8.379421870849334
 42
0.4142135623681003
  0
ENDSEC
  0
SECTION
  2
OBJECTS
  0
DICTIONARY
  5
C
330
0
100
AcDbDictionary
  3
ACAD_GROUP
350
D
  3
ACAD_LAYOUT
350
1A
  3
ACAD_MLINESTYLE
350
17
  3
ACAD_PLOTSETTINGS
350
19
  3
ACAD_PLOTSTYLENAME
350
E
  3
ACDBHEADERROUNDTRIPXREC
350
215
  0
DICTIONARY
  5
237
330
1F
100
AcDbDictionary
280
     1
  3
ACAD_LAYOUTSELFREF
360
238
  0
DICTIONARY
  5
235
330
1B
100
AcDbDictionary
280
     1
  3
ACAD_LAYOUTSELFREF
360
236
  0
DICTIONARY
  5
D
102
{ACAD_REACTORS
330
C
102
}
330
C
100
AcDbDictionary
  0
DICTIONARY
  5
1A
102
{ACAD_REACTORS
330
C
102
}
330
C
100
AcDbDictionary
  0
DICTIONARY
  5
17
102
{ACAD_REACTORS
330
C
102
}
330
C
100
AcDbDictionary
  3
STANDARD
350
18
  0
DICTIONARY
  5
19
102
{ACAD_REACTORS
330
C
102
}
330
C
100
AcDbDictionary
  0
ACDBDICTIONARYWDFLT
  5
E
102
{ACAD_REACTORS
330
C
102
}
330
C
100
AcDbDictionary
281
     1
  3
Normal
350
F
100
AcDbDictionaryWithDefault
340
F
  0
DICTIONARY
  5
215
102
{ACAD_REACTORS
330
C
102
}
330
C
100
AcDbDictionary
  3
CEPSNTYPE
350
21F
  3
FINGERPRINTGUID
350
220
  3
HYPERLINKBASE
350
218
  3
INSUNITS
350
21E
  3
LAYOUTDICT
350
21A
  3
LWETCUNION
350
21D
  3
PLOTSETDICT
350
21B
  3
PLOTSTYLNAMDICT
350
21C
  3
PSVPSCALE
350
222
  3
PUCSBASE
350
225
  3
PUCSORGBACK
350
22B
  3
PUCSORGBOTTOM
350
227
  3
PUCSORGFRONT
350
22A
  3
PUCSORGLEFT
350
228
  3
PUCSORGRIGHT
350
229
  3
PUCSORGTOP
350
226
  3
PUCSORTHOREF
350
223
  3
PUCSORTHOVIEW
350
224
  3
STYLESHEET
350
219
  3
TSTACKALIGN
350
216
  3
TSTACKSIZE
350
217
  3
UCSBASE
350
22E
  3
UCSORGBACK
350
234
  3
UCSORGBOTTOM
350
230
  3
UCSORGFRONT
350
233
  3
UCSORGLEFT
350
231
  3
UCSORGRIGHT
350
232
  3
UCSORGTOP
350
22F
  3
UCSORTHOREF
350
22C
  3
UCSORTHOVIEW
350
22D
  3
VERSIONGUID
350
221
  0
XRECORD
  5
238
102
{ACAD_REACTORS
330
237
102
}
330
237
100
AcDbXrecord
340
1F
  0
XRECORD
  5
236
102
{ACAD_REACTORS
330
235
102
}
330
235
100
AcDbXrecord
340
1B
  0
MLINESTYLE
  5
18
102
{ACAD_REACTORS
330
17
102
}
330
17
100
AcDbMlineStyle
  2
STANDARD
 70
     0
  3

 62
   256
 51
90.0
 52
90.0
 71
     2
 49
0.5
 62
   256
  6
BYLAYER
 49
-0.5
 62
   256
  6
BYLAYER
  0
ACDBPLACEHOLDER
  5
F
102
{ACAD_REACTORS
330
E
102
}
330
E
100
AcDbPlaceHolder
280
     0
  0
XRECORD
  5
21F
102
{ACAD_REACTORS
330
215
102
}
330
215
100
AcDbXrecord
 90
        0
  0
XRECORD
  5
220
102
{ACAD_REACTORS
330
215
102
}
330
215
100
AcDbXrecord
  1
{DC175E3D-AE85-11D5-9A93-0040C77E826B}
  0
XRECORD
  5
218
102
{ACAD_REACTORS
330
215
102
}
330
215
100
AcDbXrecord
  1

  0
XRECORD
  5
21E
102
{ACAD_REACTORS
330
215
102
}
330
215
100
AcDbXrecord
 90
        1
  0
XRECORD
  5
21A
102
{ACAD_REACTORS
330
215
102
}
330
215
100
AcDbXrecord
340
1A
  0
XRECORD
  5
21D
102
{ACAD_REACTORS
330
215
102
}
330
215
100
AcDbXrecord
 90
    10781
  0
XRECORD
  5
21B
102
{ACAD_REACTORS
330
215
102
}
330
215
100
AcDbXrecord
340
19
  0
XRECORD
  5
21C
102
{ACAD_REACTORS
330
215
102
}
330
215
100
AcDbXrecord
340
E
  0
XRECORD
  5
222
102
{ACAD_REACTORS
330
215
102
}
330
215
100
AcDbXrecord
 40
0.0
  0
XRECORD
  5
225
102
{ACAD_REACTORS
330
215
102
}
330
215
100
AcDbXrecord
340
0
  0
XRECORD
  5
22B
102
{ACAD_REACTORS
330
215
102
}
330
215
100
AcDbXrecord
 10
0.0
 20
0.0
 30
0.0
  0
XRECORD
  5
227
102
{ACAD_REACTORS
330
215
102
}
330
215
100
AcDbXrecord
 10
0.0
 20
0.0
 30
0.0
  0
XRECORD
  5
22A
102
{ACAD_REACTORS
330
215
102
}
330
215
100
AcDbXrecord
 10
0.0
 20
0.0
 30
0.0
  0
XRECORD
  5
228
102
{ACAD_REACTORS
330
215
102
}
330
215
100
AcDbXrecord
 10
0.0
 20
0.0
 30
0.0
  0
XRECORD
  5
229
102
{ACAD_REACTORS
330
215
102
}
330
215
100
AcDbXrecord
 10
0.0
 20
0.0
 30
0.0
  0
XRECORD
  5
226
102
{ACAD_REACTORS
330
215
102
}
330
215
100
AcDbXrecord
 10
0.0
 20
0.0
 30
0.0
  0
XRECORD
  5
223
102
{ACAD_REACTORS
330
215
102
}
330
215
100
AcDbXrecord
340
0
  0
XRECORD
  5
224
102
{ACAD_REACTORS
330
215
102
}
330
215
100
AcDbXrecord
 70
     0
  0
XRECORD
  5
219
102
{ACAD_REACTORS
330
215
102
}
330
215
100
AcDbXrecord
  1

  0
XRECORD
  5
216
102
{ACAD_REACTORS
330
215
102
}
330
215
100
AcDbXrecord
 90
        1
  0
XRECORD
  5
217
102
{ACAD_REACTORS
330
215
102
}
330
215
100
AcDbXrecord
 90
       70
  0
XRECORD
  5
22E
102
{ACAD_REACTORS
330
215
102
}
330
215
100
AcDbXrecord
340
0
  0
XRECORD
  5
234
102
{ACAD_REACTORS
330
215
102
}
330
215
100
AcDbXrecord
 10
0.0
 20
0.0
 30
0.0
  0
XRECORD
  5
230
102
{ACAD_REACTORS
330
215
102
}
330
215
100
AcDbXrecord
 10
0.0
 20
0.0
 30
0.0
  0
XRECORD
  5
233
102
{ACAD_REACTORS
330
215
102
}
330
215
100
AcDbXrecord
 10
0.0
 20
0.0
 30
0.0
  0
XRECORD
  5
231
102
{ACAD_REACTORS
330
215
102
}
330
215
100
AcDbXrecord
 10
0.0
 20
0.0
 30
0.0
  0
XRECORD
  5
232
102
{ACAD_REACTORS
330
215
102
}
330
215
100
AcDbXrecord
 10
0.0
 20
0.0
 30
0.0
  0
XRECORD
  5
22F
102
{ACAD_REACTORS
330
215
102
}
330
215
100
AcDbXrecord
 10
0.0
 20
0.0
 30
0.0
  0
XRECORD
  5
22C
102
{ACAD_REACTORS
330
215
102
}
330
215
100
AcDbXrecord
340
0
  0
XRECORD
  5
22D
102
{ACAD_REACTORS
330
215
102
}
330
215
100
AcDbXrecord
 70
     0
  0
XRECORD
  5
221
102
{ACAD_REACTORS
330
215
102
}
330
215
100
AcDbXrecord
  1
{D07A6A1D-C564-484D-8D43-1D538F61C922}
  0
ENDSEC
  0
EOF
